#TITLE:B;
#SUBTITLE:;
#ARTIST:Some Guy;
#TITLETRANSLIT:;
#SUBTITLETRANSLIT:;
#ARTISTTRANSLIT:;
#CREDIT:;
#BANNER:b-bn.png;
#BACKGROUND:b-bg.png;
#LYRICSPATH:;
#CDTITLE:;
#MUSIC:B.mp3;
#OFFSET:0.000;
#SAMPLESTART:0.000;
#SAMPLELENGTH:12.000;
#SELECTABLE:YES;
#BPMS:0.000=98.000;
#STOPS:;
#BGCHANGES:;
// cache tags:
#FIRSTBEAT:0.667;
#LASTBEAT:19.938;
#SONGFILENAME:Songs/New Folder/B v2/Bv2.sm;
#HASMUSIC:1;
#HASBANNER:1;
#MUSICLENGTH:11.815;
// end cache tags

//---------------dance-single - ----------------
#NOTES:
     dance-single:
     :
     Hard:
     8:
     0.713,0.512,0.169,1.000,1.000,43.000,2.000,14.000,0.000,1.000:
0000
0000
0000
0000
0000
0000
0000
0000
0002
0000
0000
0000
0000
0000
0000
0000
0000
0000
0000
0000
0000
0000
0000
0000
0003
0000
0000
0200
0000
2000
0000
0000
0310
3000
0000
0000
0000
0000
1000
0000
0010
0000
0100
0000
0000
0000
0010
0000
,
0000
0000
0000
0000
0000
0000
0100
0000
0010
0000
0100
0000
0000
0000
0100
0000
0000
0000
0000
0000
0001
0000
0010
0000
1000
0000
0100
0000
0000
0000
0010
0000
0000
0000
0000
0000
0000
1001
0000
0000
0000
1100
0000
0000
0000
0000
0100
0000
,
0000
0000
0020
0000
0200
0000
0000
0000
0330
2000
0000
0000
0000
0000
0000
3200
0000
0000
0000
0000
0000
0000
0000
0000
0310
0000
0000
0001
0000
0010
0000
0000
0000
0000
0100
0000
0000
0000
0000
0000
1000
0000
0100
0000
0000
0010
0000
1000
,
0000
0000
0000
0000
0000
0000
0000
0000
0000
0000
0000
0000
0010
0000
0000
0000
0000
0000
0000
0000
0000
0000
0000
0000
0000
0000
0000
0000
0000
0000
0000
0000
0020
0000
0000
0000
0000
0000
0000
0000
0000
0000
0000
0000
0000
0000
0000
0000
0000
0000
0000
0000
0000
0000
0000
0000
0000
0000
0000
0000
0000
0000
0000
0000
0000
0000
0000
0000
0000
0000
0000
0000
2030
0000
0000
0000
0000
0000
0000
0000
0000
0000
0000
0000
0000
0000
0000
0000
0000
0000
0000
0000
0000
0000
0000
0000
0000
0000
0000
0000
0000
0000
0000
0000
0000
0000
0000
0000
0000
0000
0000
0000
3002
0000
0000
0000
0000
0000
0000
0000
0000
0000
0000
0000
0000
0000
0000
0000
0000
0000
0000
0000
0000
0000
0000
0000
0000
0000
0000
0000
0000
0000
0000
0000
0000
0000
0000
0020
0000
0000
0000
0000
0003
0000
0000
0000
0000
0000
0000
0000
0000
0000
0000
0000
0000
0000
0000
0000
0000
0000
0000
0000
0000
0000
0000
0000
0000
0000
0000
0000
0000
0000
0000
0000
0000
0000
2000
0000
0000
0000
0000
0000
,
0030
0000
0000
0000
0000
0000
0000
0000
0000
0000
0000
0000
0000
0000
0000
0000
0000
0000
0000
0000
0000
0000
0000
0000
0000
0000
0000
0000
0000
0000
0000
0000
0000
0000
0000
0000
3020
0000
0000
0000
0000
0000
0000
0000
0000
0000
0000
0000
0000
0000
0000
0000
0000
0000
0000
0000
0000
0000
0000
0000
0000
0000
0000
0000
0000
0000
0000
0000
0000
0000
0000
0000
0032
0000
0000
0000
0000
0000
0000
0000
0000
0000
0000
0000
0000
0000
0000
0000
0000
0000
0000
0000
0000
0000
0000
0000
0000
0000
0000
0000
0000
0000
0000
0000
0000
0000
0000
0000
0010
0000
0000
0000
0000
0000
0003
0000
0100
0000
0000
0000
0000
0000
0000
0000
0000
0000
1000
0000
0000
0000
0000
0000
0000
0000
0000
0000
0000
0000
0000
0000
0000
0000
0000
0000
0000
0000
0000
0000
0000
0000
0000
0000
0000
0000
0000
0000
0000
0000
0000
0000
0000
0000
0000
0000
0000
0000
0000
0000
0000
0000
0000
0000
0000
0000
0000
0000
0000
0000
0000
0000
0000
0000
0000
0000
0000
0000
0000
0000
0000
0000
0000
0000
;

//---------------dance-single - ----------------
#NOTES:
     dance-single:
     :
     Beginner:
     691337420:
     1.000,1.000,1.000,1.000,1.000,123.000,62.000,122.000,0.000,75.000:
0000
0000
0000
0000
0000
0000
0000
0000
0000
0000
0000
0000
0000
0000
0000
0000
0000
0000
0000
0000
0000
0000
0000
0000
0000
0000
0000
0000
0000
0000
0000
0000
0000
0000
0000
0000
0000
0000
0000
0000
0000
0000
0000
0000
0000
0000
0000
0000
1111
0000
0000
0000
0000
0000
1110
0000
0000
2221
0000
0000
0332
0000
0000
3003
0000
0000
1221
0000
0000
0332
0000
0000
0223
0000
0000
0332
0000
0000
0003
0000
0000
2221
0000
0000
3332
0000
0000
2223
0000
0000
3330
0000
0000
0001
0000
0000
1110
0000
0000
0002
0000
0000
2223
0000
0000
0332
0000
0000
0223
0000
0000
3332
0000
0000
2023
0000
0000
0000
0000
0000
3231
0000
0000
0312
0200
0000
0003
0000
0300
0000
0000
0000
0000
0000
0000
0000
0000
0000
0001
0000
0000
0000
0000
0000
2200
0000
0000
0000
0001
0000
3300
0000
2220
0000
0000
0000
3332
0000
0000
0000
2223
0000
0000
0000
3332
0000
0000
0000
2203
0000
0000
0000
3302
0000
0000
0000
0023
0000
0000
0000
2231
0000
0000
0000
3301
0000
0000
0000
1100
0000
0000
0000
,
1110
2112
3203
0300
0201
2020
3332
0223
0332
0223
0332
0123
0032
2203
3322
0033
0100
0102
2203
3312
2223
3332
0003
2201
3312
2203
3312
0003
0001
0102
0000
0003
0021
0031
0220
2332
0223
0302
0233
0320
3032
0223
0330
2010
3002
0003
0000
0000
,
2000
0000
0100
0100
0111
0000
0111
0101
,
0111
0000
0000
0000
0000
0000
0100
0000
0000
0100
0000
0000
0111
0000
0000
0000
0000
0000
0000
0001
0021
0230
0312
0003
,
3221
0000
0000
0000
0000
0000
0000
0000
0331
0000
0000
0000
0000
0000
0000
0000
0110
0000
0000
0000
0000
0000
0000
0000
0001
0000
0000
0000
0000
0000
0000
0000
0110
0000
0000
0000
2200
0000
0000
3302
0000
0000
2203
0000
0000
3300
0000
0000
1202
0000
0000
0300
0000
0000
2203
0000
0000
3302
0000
0000
1203
0000
0000
0302
0000
0000
2003
0000
0000
3221
0000
0000
2332
0000
0000
3003
0000
0000
2001
0000
0000
3221
0000
0000
0302
0000
0000
0033
0000
0000
0000
0000
0000
0000
0000
0000
0000
0000
0000
0000
0000
0000
0000
0000
0000
0000
0000
0000
0000
0000
0000
0000
0000
0000
0000
0000
0000
0000
0000
0000
0000
0000
0000
0000
0000
0000
0000
0000
0000
0000
0000
0000
0000
0000
0000
0010
0000
0000
0010
0000
0000
0010
0000
0000
0000
0000
0000
0010
0000
0000
0010
0000
0000
0010
0000
0000
0010
0000
0000
0010
0000
0000
0000
0000
0000
0010
0000
0000
0010
0000
0000
0010
0000
0000
0010
0000
0000
0010
0000
0000
0010
0000
0000
0010
0000
0000
0010
0000
0000
0010
0000
0000
;

//---------------dance-single - ----------------
#NOTES:
     dance-single:
     :
     Easy:
     1:
     0.024,0.020,0.000,0.085,0.000,1.000,0.000,1.000,0.000,0.000:
0000
2000
0000
0000
,
0000
0000
0000
0000
,
0000
0000
0000
0000
,
0000
0000
0000
0000
,
0000
0000
0000
0000
0000
0000
0000
0000
3000
0000
0000
0000
;

//---------------dance-single - Copied from----------------
#NOTES:
     dance-single:
     Copied from:
     Medium:
     6:
     0.363,0.355,0.000,0.423,0.677,25.000,0.000,5.000,0.000,0.000:
0000
0000
0000
0000
0000
0000
0000
0000
0000
0000
0000
0000
0000
0000
0000
0000
0000
0000
0000
0000
0000
0000
0000
0000
0000
0000
0000
0000
0000
0000
0000
0000
2000
0000
0000
0000
0000
0000
0000
0000
0000
0000
0000
0000
0000
0000
0000
0000
0000
0000
0000
0000
0000
0000
0000
0000
0000
0000
0000
0000
0000
0000
0000
0000
0000
0000
0000
0000
0000
0000
0000
0000
0000
0000
0000
0000
0000
0000
0000
0000
0000
0000
0000
0000
0000
0000
0000
0000
0000
0000
0000
0000
0000
0000
0000
0000
0000
0000
0000
0000
0000
0000
0000
0000
0000
0000
0000
0000
0010
0000
0000
0000
3000
0000
0000
0000
0000
0000
0000
0000
0000
0000
0000
0000
0000
0000
0001
0000
0000
0000
0000
0000
0000
0000
0000
0000
0000
0000
0000
0000
0000
0000
0000
0000
0000
0000
0000
0000
0000
0000
0000
0000
0001
0000
0000
0000
0000
0000
0000
0000
0000
0000
0000
0000
0000
0000
0000
0000
0001
0000
0000
0000
0000
0000
0000
0000
0000
0000
0000
0000
0000
0000
0000
0000
0001
0000
0000
0000
0000
0000
0000
0000
,
0000
0000
0000
0010
0000
0010
0000
0010
0000
0000
0000
0100
0000
0100
0000
0100
0000
0000
0002
0000
0000
0023
0000
0001
,
0030
0000
0000
0000
0000
0000
0000
0000
0000
0000
0000
0000
0000
0000
0000
0000
0000
0000
0000
0000
0000
0000
0000
0000
0002
0000
0000
0000
0000
0000
0000
0000
0000
0000
0000
0000
0000
0000
0000
0000
0000
0000
0000
0000
0000
0000
0000
0000
0013
0000
0000
0000
0000
0000
0000
0000
0000
0000
0000
0000
0000
0000
0000
0000
0000
0000
0100
0000
0000
0000
0000
0000
0000
0000
0000
0000
0000
0000
0000
0000
0000
0000
0000
0000
0000
0000
0000
0000
0000
0000
0000
0000
0000
0000
0000
0000
0010
0000
0000
0000
0000
0000
0000
0000
0000
0000
0000
0000
0000
0000
0000
0000
0010
0000
0000
0000
0000
0000
0000
0000
0000
0000
0000
0000
0000
0000
0000
0000
0000
0000
0000
0000
0010
0000
0000
0000
0000
0000
0000
0000
0000
0000
0000
0000
0000
0000
0000
0000
0000
0000
0000
0000
0000
0000
0000
0000
0000
0000
0000
0000
0000
0000
0000
0000
0000
0000
0000
0000
0000
0000
0000
0000
0000
0000
0100
0000
0000
0000
0000
0000
0000
0000
0000
0000
0000
0000
0000
0000
0000
0000
0000
0000
,
0100
0100
0000
2000
0000
0000
0000
0000
0000
0000
0000
0000
0000
0000
0000
0000
,
0000
0000
0000
0000
0000
0000
0000
0000
3000
0000
0000
0000
;
